The Man with the Iron Fists 2012 CAM XViD – INSPi (Free Download)RAL

The Man with the Iron Fists 2012 CAM XViD – INSPiRAL

IMDB:

http://www.imdb.com/title/tt1258972/

SOURCES:
VIDEO – A FRIEND THANKS
AUDIO – A FRIEND THANKS
SUBS – ENG HC WHEN NEEDED

STATS:
Video
ID : 0
Format : MPEG-4 Visual
Format profile : Advanced Simple@L5
Format settings, BVOP : 2
Format settings, QPel : No
Format settings, GMC : No warppoints
Format settings, Matrix : Default (MPEG)
Muxing mode : Packed bitstream
Codec ID : XVID
Codec ID/Hint : XviD
Duration : 1h 28mn
Bit rate : 1 695 Kbps
Width : 720 pixels
Height : 304 pixels
Display aspect ratio : 2.35:1
Frame rate : 23.976 fps
Color space : YUV
Chroma subsampling : 4:2:0
Bit depth : 8 bits
Scan type : Progressive
Compression mode : Lossy
Bits/(Pixel*Frame) : 0.323
Stream size : 1.05 GiB (93%)
Writing library : XviD 64

Audio
ID : 1
Format : MPEG Audio
Format version : Version 1
Format profile : Layer 3
Mode : Joint stereo
Mode extension : MS Stereo
Codec ID : 55
Codec ID/Hint : MP3
Duration : 1h 28mn
Bit rate mode : Constant
Bit rate : 128 Kbps
Channel(s) : 2 channels
Sampling rate : 48.0 KHz
Compression mode : Lossy
Delay relative to video : 14ms
Stream size : 81.3 MiB (7%)
Alignment : Split accross interleaves
Interleave, duration : 42 ms (1.00 video frame)
Interleave, preload duration : 500 ms

NOTES:

VIDEO….was given some decent vobs for this and got too say THANKS.Q on it was ok,nothing special….there was
some cam movement,light on the contrast,too colourful,had a too smooth look to it and the worse thing was these
lines going down the screen ….like watching it through a dirty window.

Audio…ok cam audio but levels were all over the place and way too powerful.

WORKDONE:

First made a script for the vobs and then dropped them into vdub,from here i rotated the video slightly and also used
the perspective filter to pull the sides and bottom left.
However due to the movement it was impossible to get it dead right,without cutting into loads of small pieces….but its
now better.
Now to tackle the lines …i opted to add more contrast and more than normal to hide the lines and also used a HQ smoother to
blend what little was left into the video.
Also toned down the colours and slight tweaked them aswell as a few more tweaks…

Audio dropped in AA and changed all the levels and lowered the DB’s alot and resaved to mp3.

Enjoy folks

SCREENS:

Download

Advertisements

Leave a Reply

Fill in your details below or click an icon to log in:

WordPress.com Logo

You are commenting using your WordPress.com account. Log Out / Change )

Twitter picture

You are commenting using your Twitter account. Log Out / Change )

Facebook photo

You are commenting using your Facebook account. Log Out / Change )

Google+ photo

You are commenting using your Google+ account. Log Out / Change )

Connecting to %s